Wreck It Ralph (2012)



Wreck It Ralph 2012 CAM Xvid READ NFO-UnKnOwN









Kod:
http://www.imdb.com/title/tt1772341/



│ Video │
│ ID : 0 │
│ Format : MPEG-4 Visual │
│ Format profile : Advanced Simple@L5 │
│ Format settings, BVOP : Yes │
│ Format settings, QPel : No │
│ Format settings, GMC : No warppoints │
│ Format settings, Matrix : Custom │
│ Codec ID : XVID │
│ Codec ID/Hint : XviD │
│ Duration : 1h 34mn │
│ Bit rate : 1481kbps │
│ Width : 640pixels │
│ Height : 272pixels │
│ Display aspect ratio : 2:35 │
│ Frame rate : 25.000fps │
│ Color space : YUV │
│ Chroma subsampling : 4:2:0 │
│ Bit depth : 8 bits │
│ Scan type : Progressive │
│ Bits/(Pixel*Frame) : 0.234 │
│ Stream size : 892 MiB (86%) │
│ Writing library : XviD 1.2.1 (UTC 2008-12-04) │
│ │
│ │
│ Audio │
│ ID : 1 │
│ Format : AC3 │
│ Format/Info : MPEG │
│ Mode extension : CM (complete main) │
│ Codec ID : 2000 │
│ Duration : 1h 34mn │
│ Bit rate mode : Constant │
│ Bit rate : 128kbps │
│ Channel(s) : 2channels │
│ Channel positions : Front: L R │
│ Sampling rate : 48.0 KHz │
│ Bit depth : 16 bits │
│ Stream size : 302 MiB │
│ Alignment : Aligned on interleaves │
│ Interleave, duration : 42 ms (1.00 video frame) │
│ Interleave, preload duration : 512 ms













RAPIDGATOR.NET

Kod:
http://rapidgator.net/file/54691412/wirUnKnOwN.avi.html
FILEGAG.COM

Kod:
http://filegag.com/9e1lwhumn5ca
180UPLOAD.COM

Kod:
http://180upload.com/0viuaud0wrac
UPLOADED.NET

Kod:
http://uploaded.net/file/nia0nwy6/wirUnKnOwN.avi
QUEENSHARE.COM

Kod:
http://www.queenshare.com/s7w7cug6f8df
BILLIONUPLOADS.COM

Kod:
http://BillionUploads.com/b7rz9s5u7238/wirUnKnOwN.avi.html





NO PASS / ENJOY!