Movie Story

Set in Depression-era Franklin County, Virginia, a bootlegging gang is threatened by a new deputy and other authorities who want a cut of their profits.

Director: John Hillcoat
Writers: Nick Cave (screenplay), Matt Bondurant (novel)
Stars: Tom Hardy, Shia LaBeouf and Guy Pearce | See full cast and crew

Movie Info

Format : AVI
Format/Info : Audio Video Interleave
File size : 1.51 GiB
Duration : 1h 49mn
Overall bit rate : 1 979 Kbps
Writing library : VirtualDub build 32842/release

Video
ID : 0
Format : MPEG-4 Visual
Format profile : Advanced Simple@L5
Format settings, BVOP : 2
Format settings, QPel : No
Format settings, GMC : No warppoints
Format settings, Matrix : Default (H.263)
Muxing mode : Packed bitstream
Codec ID : XVID
Codec ID/Hint : XviD
Duration : 1h 49mn
Bit rate : 1 839 Kbps
Width : 652 pixels
Height : 292 pixels
Display aspect ratio : 2.25:1
Frame rate : 29.970 fps
Color space : YUV
Chroma subsampling : 4:2:0
Bit depth : 8 bits
Scan type : Progressive
Compression mode : Lossy
Bits/(Pixel*Frame) : 0.322
Stream size : 1.40 GiB (93%)
Writing library : XviD 64

Audio
ID : 1
Format : MPEG Audio
Format version : Version 1
Format profile : Layer 3
Codec ID : 55
Codec ID/Hint : MP3
Duration : 1h 49mn
Bit rate mode : Constant
Bit rate : 128 Kbps
Channel(s) : 2 channels
Sampling rate : 48.0 KHz
Compression mode : Lossy
Stream size : 100.0 MiB (6%)
Alignment : Split accross interleaves
Interleave, duration : 33 ms (1.00 video frame)
Interleave, preload duration : 500 ms




IMDB


Kod:
http://www.imdb.com/title/tt1212450/

Screenshots:





#################################################################################





RAR Recovery Record: 5%



Rapidshare





#################################################################################


iF YOU NOTiCE ANY DEAD LINKS - REPLY IN TOPIC - UNLiMiTED BACKUP READY!
....thanks to everyone for your support!!