G I Joe Retaliation (2013) TS XviD AC3 BHRG



General
Complete name : G.I. Joe Retaliation 2013 TS XviD AC3 - BHRG.avi
Format : AVI
Format/Info : Audio Video Interleave
File size : 1.55 GiB
Duration : 1h 40mn
Overall bit rate : 2 204 Kbps

Video
ID : 0
Format : MPEG-4 Visual
Format profile : Advanced Simple@L5
Format settings, BVOP : 2
Format settings, QPel : No
Format settings, GMC : No warppoints
Format settings, Matrix : Default (H.263)
Codec ID : XVID
Codec ID/Hint : XviD
Duration : 1h 40mn
Bit rate : 1 749 Kbps
Width : 640 pixels
Height : 272 pixels
Display aspect ratio : 2.35:1
Frame rate : 23.976 fps
Color space : YUV
Chroma subsampling : 4:2:0
Bit depth : 8 bits
Scan type : Progressive
Compression mode : Lossy
Bits/(Pixel*Frame) : 0.419
Stream size : 1.23 GiB (79%)
Writing library : XviD 1.2.1 (UTC 2008-12-04)

Audio
ID : 1
Format : AC-3
Format/Info : Audio Coding 3
Mode extension : CM (complete main)
Format settings, Endianness : Big
Codec ID : 2000
Duration : 1h 40mn
Bit rate mode : Constant
Bit rate : 448 Kbps
Channel(s) : 2 channels
Channel positions : Front: L R
Sampling rate : 48.0 KHz
Bit depth : 16 bits
Compression mode : Lossy
Stream size : 323 MiB (20%)
Alignment : Aligned on interleaves
Interleave, duration : 64 ms (1.53 video frames)
Interleave, preload duration : 192 ms
Kod:
http://www.imdb.com/title/tt1583421/



DOWNLOAD SINGL LINKS:
Kod:
http://ul.to/9rnwa5fo
http://superupl.com/7f9mwpixrcpf
http://ryushare.com/9607be5f8c0/Jo3R3TaLiaTioN.2013.TS.SingL.rar